  0
SECTION
  2
HEADER
  9
$ACADVER
  1
AC1009
  9
$INSBASE
 10
0.0
 20
0.0
 30
0.0
  9
$EXTMIN
 10
2378.6700044515077934
 20
1584.8154273526249654
 30
0.0
  9
$EXTMAX
 10
3313.9971450294178794
 20
2379.9677743920901776
 30
0.0
  9
$LIMMIN
 10
0.0
 20
0.0
  9
$LIMMAX
 10
420.0
 20
297.0
  9
$ORTHOMODE
 70
     0
  9
$REGENMODE
 70
     1
  9
$FILLMODE
 70
     1
  9
$QTEXTMODE
 70
     0
  9
$MIRRTEXT
 70
     0
  9
$DRAGMODE
 70
     2
  9
$LTSCALE
 40
1.0
  9
$OSMODE
 70
  4095
  9
$ATTMODE
 70
     1
  9
$TEXTSIZE
 40
2.5
  9
$TRACEWID
 40
1.0
  9
$TEXTSTYLE
  7
STANDARD
  9
$CLAYER
  8
0
  9
$CELTYPE
  6
BYLAYER
  9
$CECOLOR
 62
   256
  9
$DIMSCALE
 40
1.0
  9
$DIMASZ
 40
15.0
  9
$DIMEXO
 40
5.0
  9
$DIMDLI
 40
3.75
  9
$DIMRND
 40
0.0
  9
$DIMDLE
 40
0.0
  9
$DIMEXE
 40
1.25
  9
$DIMTP
 40
0.0
  9
$DIMTM
 40
0.0
  9
$DIMTXT
 40
25.0
  9
$DIMCEN
 40
2.5
  9
$DIMTSZ
 40
0.0
  9
$DIMTOL
 70
     0
  9
$DIMLIM
 70
     0
  9
$DIMTIH
 70
     0
  9
$DIMTOH
 70
     0
  9
$DIMSE1
 70
     0
  9
$DIMSE2
 70
     0
  9
$DIMTAD
 70
     1
  9
$DIMZIN
 70
     9
  9
$DIMBLK
  1

  9
$DIMASO
 70
     1
  9
$DIMSHO
 70
     1
  9
$DIMPOST
  1
"
  9
$DIMAPOST
  1

  9
$DIMALT
 70
     0
  9
$DIMALTD
 70
     0
  9
$DIMALTF
 40
0.03937007874016
  9
$DIMLFAC
 40
0.03937
  9
$DIMTOFL
 70
     1
  9
$DIMTVP
 40
0.0
  9
$DIMTIX
 70
     0
  9
$DIMSOXD
 70
     0
  9
$DIMSAH
 70
     0
  9
$DIMBLK1
  1

  9
$DIMBLK2
  1

  9
$DIMSTYLE
  2
英寸
  9
$DIMCLRD
 70
   256
  9
$DIMCLRE
 70
   256
  9
$DIMCLRT
 70
   256
  9
$DIMTFAC
 40
1.0
  9
$DIMGAP
 40
5.0
  9
$LUNITS
 70
     2
  9
$LUPREC
 70
     4
  9
$SKETCHINC
 40
1.0
  9
$FILLETRAD
 40
15.0
  9
$AUNITS
 70
     0
  9
$AUPREC
 70
     0
  9
$MENU
  1
.
  9
$ELEVATION
 40
0.0
  9
$PELEVATION
 40
0.0
  9
$THICKNESS
 40
0.0
  9
$LIMCHECK
 70
     0
  9
$BLIPMODE
 70
     0
  9
$CHAMFERA
 40
0.0
  9
$CHAMFERB
 40
0.0
  9
$SKPOLY
 70
     0
  9
$TDCREATE
 40
2459293.4773379629477859
  9
$TDUPDATE
 40
2459294.5811342587694526
  9
$TDINDWG
 40
0.0036574074
  9
$TDUSRTIMER
 40
0.0036574074
  9
$USRTIMER
 70
     1
  9
$ANGBASE
 50
0.0
  9
$ANGDIR
 70
     0
  9
$PDMODE
 70
     0
  9
$PDSIZE
 40
0.0
  9
$PLINEWID
 40
0.0
  9
$COORDS
 70
     1
  9
$SPLFRAME
 70
     0
  9
$SPLINETYPE
 70
     6
  9
$SPLINESEGS
 70
     8
  9
$ATTDIA
 70
     1
  9
$ATTREQ
 70
     1
  9
$HANDLING
 70
     1
  9
$HANDSEED
  5
816
  9
$SURFTAB1
 70
     6
  9
$SURFTAB2
 70
     6
  9
$SURFTYPE
 70
     6
  9
$SURFU
 70
     6
  9
$SURFV
 70
     6
  9
$UCSNAME
  2

  9
$UCSORG
 10
0.0
 20
0.0
 30
0.0
  9
$UCSXDIR
 10
1.0
 20
0.0
 30
0.0
  9
$UCSYDIR
 10
0.0
 20
1.0
 30
0.0
  9
$PUCSNAME
  2

  9
$PUCSORG
 10
0.0
 20
0.0
 30
0.0
  9
$PUCSXDIR
 10
1.0
 20
0.0
 30
0.0
  9
$PUCSYDIR
 10
0.0
 20
1.0
 30
0.0
  9
$USERI1
 70
     0
  9
$USERI2
 70
     0
  9
$USERI3
 70
     0
  9
$USERI4
 70
     0
  9
$USERI5
 70
     0
  9
$USERR1
 40
0.0
  9
$USERR2
 40
0.0
  9
$USERR3
 40
0.0
  9
$USERR4
 40
0.0
  9
$USERR5
 40
0.0
  9
$WORLDVIEW
 70
     1
  9
$SHADEDGE
 70
     3
  9
$SHADEDIF
 70
    70
  9
$TILEMODE
 70
     1
  9
$MAXACTVP
 70
    64
  9
$PLIMCHECK
 70
     0
  9
$PEXTMIN
 10
0.0
 20
0.0
 30
0.0
  9
$PEXTMAX
 10
0.0
 20
0.0
 30
0.0
  9
$PLIMMIN
 10
0.0
 20
0.0
  9
$PLIMMAX
 10
12.0
 20
9.0
  9
$UNITMODE
 70
     0
  9
$VISRETAIN
 70
     1
  9
$PLINEGEN
 70
     0
  9
$PSLTSCALE
 70
     1
  0
ENDSEC
  0
SECTION
  2
TABLES
  0
TABLE
  2
VPORT
 70
     1
  0
VPORT
  2
*ACTIVE
 70
     0
 10
0.0
 20
0.0
 11
1.0
 21
1.0
 12
3110.1776248484788994
 22
2085.078680485230052
 13
0.0
 23
0.0
 14
10.0
 24
10.0
 15
10.0
 25
10.0
 16
0.0
 26
0.0
 36
1.0
 17
0.0
 27
0.0
 37
0.0
 40
2658.8895376521609251
 41
1.495705521472392
 42
50.0
 43
0.0
 44
0.0
 50
0.0
 51
0.0
 71
     0
 72
  1000
 73
     1
 74
     3
 75
     0
 76
     0
 77
     0
 78
     0
  0
ENDTAB
  0
TABLE
  2
LTYPE
 70
     2
  0
LTYPE
  2
CONTINUOUS
 70
     0
  3
Solid line
 72
    65
 73
     0
 40
0.0
  0
ENDTAB
  0
TABLE
  2
LAYER
 70
     2
  0
LAYER
  2
0
 70
     0
 62
     7
  6
CONTINUOUS
  0
LAYER
  2
DEFPOINTS
 70
     0
 62
     7
  6
CONTINUOUS
  0
ENDTAB
  0
TABLE
  2
STYLE
 70
     2
  0
STYLE
  2
STANDARD
 70
     0
 40
0.0
 41
1.0
 50
0.0
 71
     0
 42
2.5
  3
txt
  4

  0
STYLE
  2
ANNOTATIVE
 70
     0
 40
0.0
 41
1.0
 50
0.0
 71
     0
 42
2.5
  3
txt
  4

  0
ENDTAB
  0
TABLE
  2
VIEW
 70
     0
  0
ENDTAB
  0
TABLE
  2
UCS
 70
     0
  0
ENDTAB
  0
TABLE
  2
APPID
 70
    12
  0
APPID
  2
ACAD
 70
     0
  0
APPID
  2
ACADANNOTATIVE
 70
     0
  0
APPID
  2
ACAD_PSEXT
 70
     0
  0
APPID
  2
ACADANNOPO
 70
     0
  0
APPID
  2
ACAD_DSTYLE_DIMJAG
 70
     0
  0
APPID
  2
ACAD_DSTYLE_DIMTALN
 70
     0
  0
APPID
  2
ACAD_MLEADERVER
 70
     0
  0
APPID
  2
ACAD_NAV_VCDISPLAY
 70
     0
  0
APPID
  2
ACAD_DSTYLE_DIMBREAK
 70
     0
  0
APPID
  2
ACAD_DSTYLE_DIMRADIAL_EXTENSION
 70
     0
  0
APPID
  2
ACADANNOMONITORALERTICONDI
 70
     0
  0
APPID
  2
ACAD_EXEMPT_FROM_CAD_STANDARDS
 70
     0
  0
ENDTAB
  0
TABLE
  2
DIMSTYLE
 70
     9
  0
DIMSTYLE
  2
STANDARD
 70
     0
  3

  4

  5

  6

  7

 40
1.0
 41
0.18
 42
0.0625
 43
0.38
 44
0.18
 45
0.0
 46
0.0
 47
0.0
 48
0.0
140
0.18
141
0.09
142
0.0
143
25.3999999999999986
144
1.0
145
0.0
146
1.0
147
0.09
 71
     0
 72
     0
 73
     1
 74
     1
 75
     0
 76
     0
 77
     0
 78
     0
170
     0
171
     2
172
     0
173
     0
174
     0
175
     0
176
     0
177
     0
178
     0
  0
DIMSTYLE
  2
ANNOTATIVE
 70
     0
  3

  4

  5

  6

  7

 40
0.0
 41
2.5
 42
0.625
 43
3.75
 44
1.25
 45
0.0
 46
0.0
 47
0.0
 48
0.0
140
2.5
141
2.5
142
0.0
143
0.03937007874016
144
1.0
145
0.0
146
1.0
147
0.625
 71
     0
 72
     0
 73
     0
 74
     0
 75
     0
 76
     0
 77
     1
 78
     8
170
     0
171
     3
172
     1
173
     0
174
     0
175
     0
176
     0
177
     0
178
     0
  0
DIMSTYLE
  2
ISO-25
 70
     0
  3

  4

  5

  6

  7

 40
1.0
 41
2.5
 42
0.625
 43
3.75
 44
1.25
 45
0.0
 46
0.0
 47
0.0
 48
0.0
140
2.5
141
2.5
142
0.0
143
0.03937007874016
144
1.0
145
0.0
146
1.0
147
0.625
 71
     0
 72
     0
 73
     0
 74
     0
 75
     0
 76
     0
 77
     1
 78
     8
170
     0
171
     3
172
     1
173
     0
174
     0
175
     0
176
     0
177
     0
178
     0
  0
DIMSTYLE
  2
字体小MM
 70
     0
  3

  4

  5

  6

  7

 40
1.0
 41
1.0
 42
1.0
 43
3.75
 44
1.0
 45
0.0
 46
0.0
 47
0.0
 48
0.0
140
20.0
141
2.5
142
0.0
143
0.03937007874016
144
1.0
145
0.0
146
1.0
147
1.0
 71
     0
 72
     0
 73
     0
 74
     0
 75
     0
 76
     0
 77
     1
 78
     8
170
     0
171
     0
172
     1
173
     0
174
     0
175
     0
176
     1
177
     1
178
     1
  0
DIMSTYLE
  2
MM
 70
     0
  3

  4

  5

  6

  7

 40
1.0
 41
15.0
 42
5.0
 43
3.75
 44
1.25
 45
0.0
 46
0.0
 47
0.0
 48
0.0
140
17.0
141
2.5
142
0.0
143
0.03937007874016
144
0.03937007874016
145
0.0
146
1.0
147
5.0
 71
     0
 72
     0
 73
     0
 74
     0
 75
     0
 76
     0
 77
     1
 78
     8
170
     0
171
     0
172
     1
173
     0
174
     0
175
     0
176
   256
177
   256
178
   256
  0
DIMSTYLE
  2
小号字MM
 70
     0
  3

  4
mm
  5

  6

  7

 40
1.0
 41
5.0
 42
2.0
 43
3.75
 44
1.25
 45
0.0
 46
0.0
 47
0.0
 48
0.0
140
8.0
141
2.5
142
0.0
143
25.3999999999999986
144
0.03937007874016
145
0.0
146
1.0
147
3.0
 71
     0
 72
     0
 73
     0
 74
     0
 75
     0
 76
     0
 77
     1
 78
     8
170
     1
171
     1
172
     1
173
     0
174
     0
175
     0
176
     1
177
     1
178
     1
  0
DIMSTYLE
  2
毫米和英寸
 70
     0
  3

  4
mm
  5

  6

  7

 40
1.0
 41
10.0
 42
5.0
 43
3.75
 44
1.25
 45
0.0
 46
0.0
 47
0.0
 48
0.0
140
17.0
141
2.5
142
0.0
143
25.3999999999999986
144
0.03937007874016
145
0.0
146
1.0
147
5.0
 71
     0
 72
     0
 73
     0
 74
     0
 75
     0
 76
     0
 77
     1
 78
     8
170
     1
171
     0
172
     1
173
     0
174
     0
175
     0
176
     1
177
     1
178
     1
  0
DIMSTYLE
  2
英寸加MM
 70
     0
  3

  4
mm
  5

  6

  7

 40
1.0
 41
10.0
 42
6.0
 43
3.75
 44
1.25
 45
0.0
 46
0.0
 47
0.0
 48
0.0
140
15.0
141
2.5
142
0.0
143
25.3999999999999986
144
0.03937007874016
145
0.0
146
1.0
147
10.0
 71
     0
 72
     0
 73
     0
 74
     0
 75
     0
 76
     0
 77
     1
 78
     8
170
     1
171
     2
172
     1
173
     0
174
     0
175
     0
176
     1
177
     1
178
     1
  0
DIMSTYLE
  2
英寸
 70
     0
  3

  4

  5

  6

  7

 40
1.0
 41
15.0
 42
5.0
 43
3.75
 44
1.25
 45
0.0
 46
0.0
 47
0.0
 48
0.0
140
25.0
141
2.5
142
0.0
143
0.03937007874016
144
0.03937
145
0.0
146
1.0
147
5.0
 71
     0
 72
     0
 73
     0
 74
     0
 75
     0
 76
     0
 77
     1
 78
     9
170
     0
171
     0
172
     1
173
     0
174
     0
175
     0
176
   256
177
   256
178
   256
  0
ENDTAB
  0
ENDSEC
  0
SECTION
  2
BLOCKS
  0
BLOCK
  8
0
  2
$MODEL_SPACE
 70
     0
 10
0.0
 20
0.0
 30
0.0
  3
$MODEL_SPACE
  1

  0
ENDBLK
  5
753
  8
0
  0
BLOCK
 67
     1
  8
0
  2
$PAPER_SPACE
 70
     0
 10
0.0
 20
0.0
 30
0.0
  3
$PAPER_SPACE
  1

  0
ENDBLK
  5
74F
 67
     1
  8
0
  0
BLOCK
  8
0
  2
*D2
 70
     1
 10
0.0
 20
0.0
 30
0.0
  3
*D2
  1

  0
LINE
  5
252
  8
0
 62
     1
 10
30319.2694678743100667
 20
21340.3128079424714088
 30
0.0
 11
30319.2694678743100667
 21
21853.0502489557111403
 31
0.0
  0
LINE
  5
253
  8
0
 62
     1
 10
29620.3838115111284424
 20
21686.5941571539297001
 30
0.0
 11
29620.3838115111284424
 21
21853.0502489557111403
 31
0.0
  0
LINE
  5
254
  8
0
 62
     1
 10
30304.2694678743100667
 20
21851.8002489557111403
 30
0.0
 11
29635.3838115111393563
 21
21851.8002489557111403
 31
0.0
  0
SOLID
  5
255
  8
0
 62
     1
 10
30304.2694678743100667
 20
21854.3002489557111403
 30
0.0
 11
30304.2694678743100667
 21
21849.3002489557111403
 31
0.0
 12
30319.2694678743100667
 22
21851.8002489557111403
 32
0.0
 13
30319.2694678743100667
 23
21851.8002489557111403
 33
0.0
  0
SOLID
  5
256
  8
0
 62
     1
 10
29635.3838115111393563
 20
21854.3002489557111403
 30
0.0
 11
29635.3838115111393563
 21
21849.3002489557111403
 31
0.0
 12
29620.3838115111284424
 22
21851.8002489557111403
 32
0.0
 13
29620.3838115111284424
 23
21851.8002489557111403
 33
0.0
  0
INSERT
  5
257
  8
0
  2
*U3
 10
0.0
 20
0.0
 30
0.0
  0
POINT
  5
258
  8
DEFPOINTS
 62
     0
 10
30319.2694678743100667
 20
21335.3128079424714088
 30
0.0
  0
POINT
  5
259
  8
DEFPOINTS
 62
     0
 10
29620.3838115111284424
 20
21681.5941571539187862
 30
0.0
  0
POINT
  5
25A
  8
DEFPOINTS
 62
     0
 10
29620.3838115111284424
 20
21851.8002489557111403
 30
0.0
  0
ENDBLK
  5
25B
  8
0
  0
BLOCK
  8
0
  2
*U3
 70
     1
 10
0.0
 20
0.0
 30
0.0
  3
*U3
  1

  0
TEXT
  5
670
  8
0
 62
     1
 10
29926.6251844858088589
 20
21856.8002489557111403
 30
0.0
 40
25.0
  1
27
  0
TEXT
  5
671
  8
0
 62
     1
 10
29961.6695228214193776
 20
21881.9025681917191832
 30
0.0
 40
25.0
  1
1
  0
LINE
  5
672
  8
0
 62
     1
 10
29964.5083747593998851
 20
21861.4237670844995591
 30
0.0
 11
29993.1871965769314556
 21
21902.3813692989497213
 31
0.0
  0
TEXT
  5
673
  8
0
 62
     1
 10
29981.9912599746712658
 20
21856.8002489557111403
 30
0.0
 40
25.0
  1
2
  0
TEXT
  5
674
  8
0
 62
     1
 10
30001.2443295517514343
 20
21856.8002489557111403
 30
0.0
 40
25.0
  1
"
  0
ENDBLK
  5
676
  8
0
  0
BLOCK
  8
0
  2
*D4
 70
     1
 10
0.0
 20
0.0
 30
0.0
  3
*D4
  1

  0
LINE
  5
272
  8
0
 62
     1
 10
3805.1420347624011811
 20
1562.737934766169019
 30
0.0
 11
3805.1420347624011811
 21
2075.4753757794119338
 31
0.0
  0
LINE
  5
273
  8
0
 62
     1
 10
3106.2563783992281969
 20
1909.019283977627083
 30
0.0
 11
3106.2563783992281969
 21
2075.4753757794119338
 31
0.0
  0
LINE
  5
274
  8
0
 62
     1
 10
3790.1420347624011811
 20
2074.2253757794128433
 30
0.0
 11
3121.2563783992268327
 21
2074.2253757794128433
 31
0.0
  0
SOLID
  5
275
  8
0
 62
     1
 10
3790.1420347624011811
 20
2076.7253757794119338
 30
0.0
 11
3790.1420347624011811
 21
2071.7253757794128433
 31
0.0
 12
3805.1420347624011811
 22
2074.2253757794128433
 32
0.0
 13
3805.1420347624011811
 23
2074.2253757794128433
 33
0.0
  0
SOLID
  5
276
  8
0
 62
     1
 10
3121.2563783992268327
 20
2076.7253757794119338
 30
0.0
 11
3121.2563783992268327
 21
2071.7253757794128433
 31
0.0
 12
3106.2563783992281969
 22
2074.2253757794128433
 32
0.0
 13
3106.2563783992281969
 23
2074.2253757794128433
 33
0.0
  0
INSERT
  5
277
  8
0
  2
*U5
 10
0.0
 20
0.0
 30
0.0
  0
POINT
  5
278
  8
DEFPOINTS
 62
     0
 10
3805.1420347624011811
 20
1557.737934766169019
 30
0.0
  0
POINT
  5
279
  8
DEFPOINTS
 62
     0
 10
3106.2563783992281969
 20
1904.019283977627083
 30
0.0
  0
POINT
  5
27A
  8
DEFPOINTS
 62
     0
 10
3106.2563783992281969
 20
2074.2253757794128433
 30
0.0
  0
ENDBLK
  5
268
  8
0
  0
BLOCK
  8
0
  2
*U5
 70
     1
 10
0.0
 20
0.0
 30
0.0
  3
*U5
  1

  0
TEXT
  5
678
  8
0
 62
     1
 10
3412.4977513739008828
 20
2079.2253757794119338
 30
0.0
 40
25.0
  1
27
  0
TEXT
  5
679
  8
0
 62
     1
 10
3447.5420897095091277
 20
2104.3276950154267979
 30
0.0
 40
25.0
  1
1
  0
LINE
  5
67A
  8
0
 62
     1
 10
3450.380941647480995
 20
2083.8488939082039906
 30
0.0
 11
3479.0597634650330292
 21
2124.8064961226527885
 31
0.0
  0
TEXT
  5
67B
  8
0
 62
     1
 10
3467.8638268627601065
 20
2079.2253757794119338
 30
0.0
 40
25.0
  1
2
  0
TEXT
  5
67C
  8
0
 62
     1
 10
3487.1168964398398202
 20
2079.2253757794119338
 30
0.0
 40
25.0
  1
"
  0
ENDBLK
  5
67E
  8
0
  0
BLOCK
  8
0
  2
*D6
 70
     1
 10
0.0
 20
0.0
 30
0.0
  3
*D6
  1

  0
LINE
  5
2BC
  8
0
 10
2224.8789134213379839
 20
1691.9396462103240992
 30
0.0
 11
2224.8789134213379839
 21
1774.3428823993729111
 31
0.0
  0
LINE
  5
2BD
  8
0
 10
2936.8789134213388934
 20
1691.9396462103240992
 30
0.0
 11
2936.8789134213388934
 21
1774.3428823993729111
 31
0.0
  0
LINE
  5
2BE
  8
0
 10
2239.8789134213388934
 20
1773.0928823993729111
 30
0.0
 11
2921.8789134213379839
 21
1773.0928823993729111
 31
0.0
  0
SOLID
  5
2BF
  8
0
 10
2239.8789134213388934
 20
1775.5928823993720016
 30
0.0
 11
2239.8789134213388934
 21
1770.5928823993729111
 31
0.0
 12
2224.8789134213379839
 22
1773.0928823993729111
 32
0.0
 13
2224.8789134213379839
 23
1773.0928823993729111
 33
0.0
  0
SOLID
  5
2C0
  8
0
 10
2921.8789134213379839
 20
1775.5928823993720016
 30
0.0
 11
2921.8789134213379839
 21
1770.5928823993729111
 31
0.0
 12
2936.8789134213388934
 22
1773.0928823993729111
 32
0.0
 13
2936.8789134213388934
 23
1773.0928823993729111
 33
0.0
  0
INSERT
  5
2C1
  8
0
  2
*U7
 10
0.0
 20
0.0
 30
0.0
  0
POINT
  5
2C2
  8
DEFPOINTS
 62
     0
 10
2224.8789134213379839
 20
1686.9396462103240992
 30
0.0
  0
POINT
  5
2C3
  8
DEFPOINTS
 62
     0
 10
2936.8789134213388934
 20
1686.9396462103240992
 30
0.0
  0
POINT
  5
2C4
  8
DEFPOINTS
 62
     0
 10
2936.8789134213388934
 20
1773.0928823993729111
 30
0.0
  0
ENDBLK
  5
27E
  8
0
  0
BLOCK
  8
0
  2
*U7
 70
     1
 10
0.0
 20
0.0
 30
0.0
  3
*U7
  1

  0
TEXT
  5
680
  8
0
 10
2555.5634291102878706
 20
1778.5192125494399988
 30
0.0
 40
25.0
  1
28"
  0
ENDBLK
  5
682
  8
0
  0
BLOCK
  8
0
  2
*D8
 70
     1
 10
0.0
 20
0.0
 30
0.0
  3
*D8
  1

  0
LINE
  5
2C5
  8
0
 10
2229.8789134213388934
 20
1696.9396462103240992
 30
0.0
 11
2139.2118792822720934
 21
1696.9396462103240992
 31
0.0
  0
LINE
  5
2C6
  8
0
 10
2229.8789134213388934
 20
1289.9396462103240992
 30
0.0
 11
2139.2118792822720934
 21
1289.9396462103240992
 31
0.0
  0
LINE
  5
2C7
  8
0
 10
2140.4618792822720934
 20
1681.9396462103250087
 30
0.0
 11
2140.4618792822720934
 21
1304.9396462103240992
 31
0.0
  0
SOLID
  5
2C8
  8
0
 10
2137.9618792822720934
 20
1681.9396462103250087
 30
0.0
 11
2142.9618792822711839
 21
1681.9396462103250087
 31
0.0
 12
2140.4618792822720934
 22
1696.9396462103240992
 32
0.0
 13
2140.4618792822720934
 23
1696.9396462103240992
 33
0.0
  0
SOLID
  5
2C9
  8
0
 10
2137.9618792822720934
 20
1304.9396462103240992
 30
0.0
 11
2142.9618792822711839
 21
1304.9396462103240992
 31
0.0
 12
2140.4618792822720934
 22
1289.9396462103240992
 32
0.0
 13
2140.4618792822720934
 23
1289.9396462103240992
 33
0.0
  0
INSERT
  5
2CA
  8
0
  2
*U9
 10
0.0
 20
0.0
 30
0.0
  0
POINT
  5
2CB
  8
DEFPOINTS
 62
     0
 10
2234.8789134213398029
 20
1696.9396462103240992
 30
0.0
  0
POINT
  5
2CC
  8
DEFPOINTS
 62
     0
 10
2234.8789134213398029
 20
1289.9396462103240992
 30
0.0
  0
POINT
  5
2CD
  8
DEFPOINTS
 62
     0
 10
2140.4618792822720934
 20
1289.9396462103240992
 30
0.0
  0
ENDBLK
  5
296
  8
0
  0
BLOCK
  8
0
  2
*U9
 70
     1
 10
0.0
 20
0.0
 30
0.0
  3
*U9
  1

  0
TEXT
  5
684
  8
0
 10
2135.0355491322029593
 20
1466.7343256100509734
 30
0.0
 40
25.0
  1
16"
 50
90.0
  0
ENDBLK
  5
686
  8
0
  0
BLOCK
  8
0
  2
*D10
 70
     1
 10
0.0
 20
0.0
 30
0.0
  3
*D10
  1

  0
LINE
  5
2F4
  8
0
 10
2328.2754104946429834
 20
1329.1871996844399746
 30
0.0
 11
2239.6504230731211464
 21
1301.4338669580579335
 31
0.0
  0
INSERT
  5
2F5
  8
0
  2
*U11
 10
0.0
 20
0.0
 30
0.0
  0
SOLID
  5
2F6
  8
0
 10
2238.9033126992540019
 20
1303.81962178394906
 30
0.0
 11
2240.3975334469892005
 21
1299.0481121321679439
 31
0.0
 12
2225.3358941177789347
 22
1296.9512047148530201
 32
0.0
 13
2225.3358941177789347
 23
1296.9512047148530201
 33
0.0
  0
POINT
  5
2F7
  8
DEFPOINTS
 62
     0
 10
2225.3358941177789347
 20
1296.9512047148530201
 30
0.0
  0
POINT
  5
2F8
  8
DEFPOINTS
 62
     0
 10
2234.8789134213398029
 20
1299.9396462103220529
 30
0.0
  0
ENDBLK
  5
2AF
  8
0
  0
BLOCK
  8
0
  2
*U11
 70
     1
 10
0.0
 20
0.0
 30
0.0
  3
*U11
  1

  0
TEXT
  5
688
  8
0
 10
2262.3360466211870516
 20
1314.224154432044088
 30
0.0
 40
25.0
  1
R10
 50
17.3881932954771408
  0
ENDBLK
  5
68A
  8
0
  0
BLOCK
  8
0
  2
*D12
 70
     1
 10
0.0
 20
0.0
 30
0.0
  3
*D12
  1

  0
LINE
  5
37B
  8
0
 10
2224.8789134213379839
 20
1691.9396462103240992
 30
0.0
 11
2224.8789134213379839
 21
1774.3428823993729111
 31
0.0
  0
LINE
  5
37C
  8
0
 10
2936.8789134213388934
 20
1691.9396462103240992
 30
0.0
 11
2936.8789134213388934
 21
1774.3428823993729111
 31
0.0
  0
LINE
  5
37D
  8
0
 10
2239.8789134213388934
 20
1773.0928823993729111
 30
0.0
 11
2921.8789134213379839
 21
1773.0928823993729111
 31
0.0
  0
SOLID
  5
37E
  8
0
 10
2239.8789134213388934
 20
1775.5928823993720016
 30
0.0
 11
2239.8789134213388934
 21
1770.5928823993729111
 31
0.0
 12
2224.8789134213379839
 22
1773.0928823993729111
 32
0.0
 13
2224.8789134213379839
 23
1773.0928823993729111
 33
0.0
  0
SOLID
  5
37F
  8
0
 10
2921.8789134213379839
 20
1775.5928823993720016
 30
0.0
 11
2921.8789134213379839
 21
1770.5928823993729111
 31
0.0
 12
2936.8789134213388934
 22
1773.0928823993729111
 32
0.0
 13
2936.8789134213388934
 23
1773.0928823993729111
 33
0.0
  0
INSERT
  5
380
  8
0
  2
*U13
 10
0.0
 20
0.0
 30
0.0
  0
POINT
  5
381
  8
DEFPOINTS
 62
     0
 10
2224.8789134213379839
 20
1686.9396462103240992
 30
0.0
  0
POINT
  5
382
  8
DEFPOINTS
 62
     0
 10
2936.8789134213388934
 20
1686.9396462103240992
 30
0.0
  0
POINT
  5
383
  8
DEFPOINTS
 62
     0
 10
2936.8789134213388934
 20
1773.0928823993729111
 30
0.0
  0
ENDBLK
  5
384
  8
0
  0
BLOCK
  8
0
  2
*U13
 70
     1
 10
0.0
 20
0.0
 30
0.0
  3
*U13
  1

  0
TEXT
  5
68C
  8
0
 10
2555.5634291102878706
 20
1778.5192125494399988
 30
0.0
 40
25.0
  1
28"
  0
ENDBLK
  5
68E
  8
0
  0
BLOCK
  8
0
  2
*D14
 70
     1
 10
0.0
 20
0.0
 30
0.0
  3
*D14
  1

  0
LINE
  5
398
  8
0
 10
2401.3447750380128127
 20
1426.9895286243020109
 30
0.0
 11
2401.3447750380128127
 21
1509.3927648133499133
 31
0.0
  0
LINE
  5
399
  8
0
 10
3113.3447750380128127
 20
1426.9895286243020109
 30
0.0
 11
3113.3447750380128127
 21
1509.3927648133499133
 31
0.0
  0
LINE
  5
39A
  8
0
 10
2416.3447750380128127
 20
1508.1427648133499133
 30
0.0
 11
3098.3447750380128127
 21
1508.1427648133499133
 31
0.0
  0
SOLID
  5
39B
  8
0
 10
2416.3447750380128127
 20
1510.6427648133499133
 30
0.0
 11
2416.3447750380128127
 21
1505.6427648133499133
 31
0.0
 12
2401.3447750380128127
 22
1508.1427648133499133
 32
0.0
 13
2401.3447750380128127
 23
1508.1427648133499133
 33
0.0
  0
SOLID
  5
39C
  8
0
 10
3098.3447750380128127
 20
1510.6427648133499133
 30
0.0
 11
3098.3447750380128127
 21
1505.6427648133499133
 31
0.0
 12
3113.3447750380128127
 22
1508.1427648133499133
 32
0.0
 13
3113.3447750380128127
 23
1508.1427648133499133
 33
0.0
  0
INSERT
  5
39D
  8
0
  2
*U15
 10
0.0
 20
0.0
 30
0.0
  0
POINT
  5
39E
  8
DEFPOINTS
 62
     0
 10
2401.3447750380128127
 20
1421.9895286243020109
 30
0.0
  0
POINT
  5
39F
  8
DEFPOINTS
 62
     0
 10
3113.3447750380128127
 20
1421.9895286243020109
 30
0.0
  0
POINT
  5
3A0
  8
DEFPOINTS
 62
     0
 10
3113.3447750380128127
 20
1508.1427648133499133
 30
0.0
  0
ENDBLK
  5
38E
  8
0
  0
BLOCK
  8
0
  2
*U15
 70
     1
 10
0.0
 20
0.0
 30
0.0
  3
*U15
  1

  0
TEXT
  5
690
  8
0
 10
2732.0292907269608804
 20
1513.5690949634179105
 30
0.0
 40
25.0
  1
28"
  0
ENDBLK
  5
692
  8
0
  0
BLOCK
  8
0
  2
*D16
 70
     1
 10
0.0
 20
0.0
 30
0.0
  3
*D16
  1

  0
LINE
  5
3B6
  8
0
 10
2443.8552448014320362
 20
1827.073085767611019
 30
0.0
 11
2443.8552448014320362
 21
1883.4316084240319924
 31
0.0
  0
LINE
  5
3B7
  8
0
 10
3155.8552448014311267
 20
1827.073085767611019
 30
0.0
 11
3155.8552448014311267
 21
1883.4316084240319924
 31
0.0
  0
LINE
  5
3B8
  8
0
 10
2458.8552448014311267
 20
1882.1816084240329019
 30
0.0
 11
3140.8552448014311267
 21
1882.1816084240329019
 31
0.0
  0
SOLID
  5
3B9
  8
0
 10
2458.8552448014311267
 20
1884.6816084240340388
 30
0.0
 11
2458.8552448014311267
 21
1879.6816084240340388
 31
0.0
 12
2443.8552448014320362
 22
1882.1816084240329019
 32
0.0
 13
2443.8552448014320362
 23
1882.1816084240329019
 33
0.0
  0
SOLID
  5
3BA
  8
0
 10
3140.8552448014311267
 20
1884.6816084240340388
 30
0.0
 11
3140.8552448014311267
 21
1879.6816084240340388
 31
0.0
 12
3155.8552448014311267
 22
1882.1816084240329019
 32
0.0
 13
3155.8552448014311267
 23
1882.1816084240329019
 33
0.0
  0
INSERT
  5
3BB
  8
0
  2
*U17
 10
0.0
 20
0.0
 30
0.0
  0
POINT
  5
3BC
  8
DEFPOINTS
 62
     0
 10
2443.8552448014320362
 20
1822.073085767611019
 30
0.0
  0
POINT
  5
3BD
  8
DEFPOINTS
 62
     0
 10
3155.8552448014311267
 20
1822.073085767611019
 30
0.0
  0
POINT
  5
3BE
  8
DEFPOINTS
 62
     0
 10
3155.8552448014311267
 20
1882.1816084240329019
 30
0.0
  0
ENDBLK
  5
3AB
  8
0
  0
BLOCK
  8
0
  2
*U17
 70
     1
 10
0.0
 20
0.0
 30
0.0
  3
*U17
  1

  0
TEXT
  5
69D
  8
0
 10
2774.5397604903810134
 20
1887.6079385741008991
 30
0.0
 40
25.0
  1
28"
  0
ENDBLK
  5
69F
  8
0
  0
BLOCK
  8
0
  2
*D18
 70
     1
 10
0.0
 20
0.0
 30
0.0
  3
*D18
  1

  0
LINE
  5
3CE
  8
0
 10
2453.8552448014311267
 20
1837.0730857676119285
 30
0.0
 11
2384.2877469512350217
 21
1837.0730857676119285
 31
0.0
  0
LINE
  5
3CF
  8
0
 10
2453.8552448014311267
 20
1455.073085767611019
 30
0.0
 11
2384.2877469512350217
 21
1455.073085767611019
 31
0.0
  0
LINE
  5
3D0
  8
0
 10
2385.5377469512350217
 20
1822.073085767611019
 30
0.0
 11
2385.5377469512350217
 21
1470.073085767611019
 31
0.0
  0
SOLID
  5
3D1
  8
0
 10
2383.0377469512350217
 20
1822.073085767611019
 30
0.0
 11
2388.0377469512350217
 21
1822.073085767611019
 31
0.0
 12
2385.5377469512350217
 22
1837.0730857676119285
 32
0.0
 13
2385.5377469512350217
 23
1837.0730857676119285
 33
0.0
  0
SOLID
  5
3D2
  8
0
 10
2383.0377469512350217
 20
1470.073085767611019
 30
0.0
 11
2388.0377469512350217
 21
1470.073085767611019
 31
0.0
 12
2385.5377469512350217
 22
1455.073085767611019
 32
0.0
 13
2385.5377469512350217
 23
1455.073085767611019
 33
0.0
  0
INSERT
  5
3D3
  8
0
  2
*U19
 10
0.0
 20
0.0
 30
0.0
  0
POINT
  5
3D4
  8
DEFPOINTS
 62
     0
 10
2458.8552448014320362
 20
1837.0730857676119285
 30
0.0
  0
POINT
  5
3D5
  8
DEFPOINTS
 62
     0
 10
2458.8552448014320362
 20
1455.073085767611019
 30
0.0
  0
POINT
  5
3D6
  8
DEFPOINTS
 62
     0
 10
2385.5377469512350217
 20
1455.073085767611019
 30
0.0
  0
ENDBLK
  5
3C3
  8
0
  0
BLOCK
  8
0
  2
*U19
 70
     1
 10
0.0
 20
0.0
 30
0.0
  3
*U19
  1

  0
TEXT
  5
6A1
  8
0
 10
2380.1114168011667971
 20
1619.3677651673369837
 30
0.0
 40
25.0
  1
15"
 50
90.0
  0
ENDBLK
  5
6A3
  8
0
  0
BLOCK
  8
0
  2
*D20
 70
     1
 10
0.0
 20
0.0
 30
0.0
  3
*D20
  1

  0
LINE
  5
3F7
  8
0
 10
2537.73142773153495
 20
1519.5461551726050402
 30
0.0
 11
2458.8552448014311267
 21
1470.0730857676101095
 31
0.0
  0
INSERT
  5
3F8
  8
0
  2
*U21
 10
0.0
 20
0.0
 30
0.0
  0
SOLID
  5
3F9
  8
0
 10
2457.5268613999642184
 20
1472.1909614813168901
 30
0.0
 11
2460.1836282028971254
 21
1467.9552100539031017
 31
0.0
 12
2446.1479905191899888
 22
1462.1027853588120706
 32
0.0
 13
2446.1479905191899888
 23
1462.1027853588120706
 33
0.0
  0
POINT
  5
3FA
  8
DEFPOINTS
 62
     0
 10
2446.1479905191899888
 20
1462.1027853588120706
 30
0.0
  0
POINT
  5
3FB
  8
DEFPOINTS
 62
     0
 10
2458.8552448014311267
 20
1470.073085767611019
 30
0.0
  0
ENDBLK
  5
3DB
  8
0
  0
BLOCK
  8
0
  2
*U21
 70
     1
 10
0.0
 20
0.0
 30
0.0
  3
*U21
  1

  0
TEXT
  5
6A5
  8
0
 10
2477.5210184172260597
 20
1488.1861076855859665
 30
0.0
 40
25.0
  1
R15
 50
32.0969416320209504
  0
ENDBLK
  5
6A7
  8
0
  0
BLOCK
  8
0
  2
*D22
 70
     1
 10
0.0
 20
0.0
 30
0.0
  3
*D22
  1

  0
LINE
  5
4A7
  8
0
 10
2598.3842049285781286
 20
1893.576902350562932
 30
0.0
 11
2598.3842049285781286
 21
1988.235946469711962
 31
0.0
  0
LINE
  5
4A8
  8
0
 10
3361.3842049285781286
 20
1893.576902350562932
 30
0.0
 11
3361.3842049285781286
 21
1988.235946469711962
 31
0.0
  0
LINE
  5
4A9
  8
0
 10
2613.3842049285781286
 20
1986.985946469711962
 30
0.0
 11
3346.3842049285781286
 21
1986.985946469711962
 31
0.0
  0
SOLID
  5
4AA
  8
0
 10
2613.3842049285781286
 20
1989.4859464697130988
 30
0.0
 11
2613.3842049285781286
 21
1984.485946469711962
 31
0.0
 12
2598.3842049285781286
 22
1986.985946469711962
 32
0.0
 13
2598.3842049285781286
 23
1986.985946469711962
 33
0.0
  0
SOLID
  5
4AB
  8
0
 10
3346.3842049285781286
 20
1989.4859464697130988
 30
0.0
 11
3346.3842049285781286
 21
1984.485946469711962
 31
0.0
 12
3361.3842049285781286
 22
1986.985946469711962
 32
0.0
 13
3361.3842049285781286
 23
1986.985946469711962
 33
0.0
  0
INSERT
  5
4AC
  8
0
  2
*U23
 10
0.0
 20
0.0
 30
0.0
  0
POINT
  5
4AD
  8
DEFPOINTS
 62
     0
 10
2598.3842049285781286
 20
1888.5769023505620225
 30
0.0
  0
POINT
  5
4AE
  8
DEFPOINTS
 62
     0
 10
3361.3842049285781286
 20
1888.5769023505620225
 30
0.0
  0
POINT
  5
4AF
  8
DEFPOINTS
 62
     0
 10
3361.3842049285781286
 20
1986.985946469711962
 30
0.0
  0
ENDBLK
  5
49C
  8
0
  0
BLOCK
  8
0
  2
*U23
 70
     1
 10
0.0
 20
0.0
 30
0.0
  3
*U23
  1

  0
TEXT
  5
6AE
  8
0
 10
2954.3470289394917927
 20
1992.4293298257839524
 30
0.0
 40
25.0
  1
30"
  0
ENDBLK
  5
6B0
  8
0
  0
BLOCK
  8
0
  2
*D24
 70
     1
 10
0.0
 20
0.0
 30
0.0
  3
*D24
  1

  0
LINE
  5
4BF
  8
0
 10
2608.3842049285790381
 20
1903.5769023505640689
 30
0.0
 11
2510.1463558612308589
 21
1903.576902350562932
 31
0.0
  0
LINE
  5
4C0
  8
0
 10
2608.3842049285790381
 20
1496.576902350562932
 30
0.0
 11
2510.1463558612308589
 21
1496.576902350562932
 31
0.0
  0
LINE
  5
4C1
  8
0
 10
2511.3963558612308589
 20
1888.576902350562932
 30
0.0
 11
2511.3963558612308589
 21
1511.576902350562932
 31
0.0
  0
SOLID
  5
4C2
  8
0
 10
2508.8963558612308589
 20
1888.576902350562932
 30
0.0
 11
2513.8963558612308589
 21
1888.576902350562932
 31
0.0
 12
2511.3963558612308589
 22
1903.576902350562932
 32
0.0
 13
2511.3963558612308589
 23
1903.576902350562932
 33
0.0
  0
SOLID
  5
4C3
  8
0
 10
2508.8963558612308589
 20
1511.576902350562932
 30
0.0
 11
2513.8963558612308589
 21
1511.576902350562932
 31
0.0
 12
2511.3963558612308589
 22
1496.576902350562932
 32
0.0
 13
2511.3963558612308589
 23
1496.576902350562932
 33
0.0
  0
INSERT
  5
4C4
  8
0
  2
*U25
 10
0.0
 20
0.0
 30
0.0
  0
POINT
  5
4C5
  8
DEFPOINTS
 62
     0
 10
2613.3842049285790381
 20
1903.5769023505640689
 30
0.0
  0
POINT
  5
4C6
  8
DEFPOINTS
 62
     0
 10
2613.3842049285790381
 20
1496.576902350562932
 30
0.0
  0
POINT
  5
4C7
  8
DEFPOINTS
 62
     0
 10
2511.3963558612308589
 20
1496.576902350562932
 30
0.0
  0
ENDBLK
  5
4B4
  8
0
  0
BLOCK
  8
0
  2
*U25
 70
     1
 10
0.0
 20
0.0
 30
0.0
  3
*U25
  1

  0
TEXT
  5
6B2
  8
0
 10
2505.9700257111621795
 20
1673.3715817502888967
 30
0.0
 40
25.0
  1
16"
 50
90.0
  0
ENDBLK
  5
6B4
  8
0
  0
BLOCK
  8
0
  2
*D26
 70
     1
 10
0.0
 20
0.0
 30
0.0
  3
*D26
  1

  0
LINE
  5
4D4
  8
0
 10
2501.1308514698339422
 20
1443.4862049656419458
 30
0.0
 11
2587.7341829247388887
 21
1496.0180986946720623
 31
0.0
  0
INSERT
  5
4D5
  8
0
  2
*U27
 10
0.0
 20
0.0
 30
0.0
  0
LINE
  5
4D6
  8
0
 10
2613.3842049285772191
 20
1511.576902350562932
 30
0.0
 11
2600.5591939266578265
 21
1503.7975005226169287
 31
0.0
  0
SOLID
  5
4D7
  8
0
 10
2586.4376159534149338
 20
1498.155600528325067
 30
0.0
 11
2589.0307498960628436
 21
1493.8805968610179207
 31
0.0
 12
2600.5591939266578265
 22
1503.7975005226169287
 32
0.0
 13
2600.5591939266578265
 23
1503.7975005226169287
 33
0.0
  0
POINT
  5
4D8
  8
DEFPOINTS
 62
     0
 10
2600.5591939266578265
 20
1503.7975005226169287
 30
0.0
  0
POINT
  5
4D9
  8
DEFPOINTS
 62
     0
 10
2613.3842049285772191
 20
1511.576902350562932
 30
0.0
  0
ENDBLK
  5
4CC
  8
0
  0
BLOCK
  8
0
  2
*U27
 70
     1
 10
0.0
 20
0.0
 30
0.0
  3
*U27
  1

  0
TEXT
  5
6B6
  8
0
 10
2500.4652601084198977
 20
1448.9304184120010177
 30
0.0
 40
25.0
  1
R
 50
31.2401841864531598
  0
TEXT
  5
6B7
  8
0
 10
2507.5506407362518075
 20
1483.0863161132620007
 30
0.0
 40
25.0
  1
5
 50
31.2401841864531598
  0
LINE
  5
6B8
  8
0
 10
2524.8853841468030623
 20
1469.6494401520990323
 30
0.0
 11
2528.1640881332591562
 21
1519.5418253443219783
 31
0.0
  0
TEXT
  5
6B9
  8
0
 10
2542.1168988405897835
 20
1474.1954910455829122
 30
0.0
 40
25.0
  1
8
 50
31.2401841864531598
  0
TEXT
  5
6BA
  8
0
 10
2558.8407365158977882
 20
1484.339845180023076
 30
0.0
 40
25.0
  1
"
 50
31.2401841864531598
  0
ENDBLK
  5
6BC
  8
0
  0
BLOCK
  8
0
  2
*D28
 70
     1
 10
0.0
 20
0.0
 30
0.0
  3
*D28
  1

  0
LINE
  5
4E7
  8
0
 10
2669.7910787875021015
 20
1630.1324716611700296
 30
0.0
 11
2626.2732413009380252
 21
1538.6669880165779887
 31
0.0
  0
INSERT
  5
4E8
  8
0
  2
*U29
 10
0.0
 20
0.0
 30
0.0
  0
LINE
  5
4E9
  8
0
 10
2613.3842049285772191
 20
1511.5769023505620225
 30
0.0
 11
2619.8287231147578495
 21
1525.1219451835709151
 31
0.0
  0
SOLID
  5
4EA
  8
0
 10
2624.0157341621029445
 20
1539.7410743809409723
 30
0.0
 11
2628.5307484397731059
 21
1537.592901652215005
 31
0.0
 12
2619.8287231147578495
 22
1525.1219451835709151
 32
0.0
 13
2619.8287231147578495
 23
1525.1219451835709151
 33
0.0
  0
ARC
  5
4EB
  8
0
 10
2613.3842049285772191
 20
1511.5769023505620225
 30
0.0
 40
15.0000000000027303
 50
59.7809819712896271
 51
160.9014068289760075
  0
POINT
  5
4EC
  8
DEFPOINTS
 62
     0
 10
2619.8287231147578495
 20
1525.1219451835709151
 30
0.0
  0
POINT
  5
4ED
  8
DEFPOINTS
 62
     0
 10
2613.3842049285772191
 20
1511.5769023505620225
 30
0.0
  0
ENDBLK
  5
4DE
  8
0
  0
BLOCK
  8
0
  2
*U29
 70
     1
 10
0.0
 20
0.0
 30
0.0
  3
*U29
  1

  0
TEXT
  5
6BE
  8
0
 10
2629.1713278654438
 20
1556.3959637676280181
 30
0.0
 40
25.0
  1
R
 50
64.5556302640452486
  0
TEXT
  5
6BF
  8
0
 10
2616.3322296736801036
 20
1588.8302900908699939
 30
0.0
 40
25.0
  1
5
 50
64.5556302640452486
  0
LINE
  5
6C0
  8
0
 10
2638.1983484600791598
 20
1587.122714638826892
 30
0.0
 11
2613.5349292887099182
 21
1630.6165734556450388
 31
0.0
  0
TEXT
  5
6C1
  8
0
 10
2650.1011144561539368
 20
1600.3860414843441049
 30
0.0
 40
25.0
  1
8
 50
64.5556302640452486
  0
TEXT
  5
6C2
  8
0
 10
2658.5047778935668248
 20
1618.0488019771350992
 30
0.0
 40
25.0
  1
"
 50
64.5556302640452486
  0
ENDBLK
  5
6C4
  8
0
  0
BLOCK
  8
0
  2
*D30
 70
     1
 10
0.0
 20
0.0
 30
0.0
  3
*D30
  1

  0
LINE
  5
504
  8
0
 10
2700.1425962999810508
 20
1545.3706644468629747
 30
0.0
 11
2613.3842049285799476
 21
1511.576902350562932
 31
0.0
  0
INSERT
  5
505
  8
0
  2
*U31
 10
0.0
 20
0.0
 30
0.0
  0
SOLID
  5
506
  8
0
 10
2612.4768209077028587
 20
1513.9064203776790691
 30
0.0
 11
2614.291588949456127
 21
1509.2473843234470223
 31
0.0
 12
2599.407096765884944
 22
1506.1325982253010807
 32
0.0
 13
2599.407096765884944
 23
1506.1325982253010807
 33
0.0
  0
POINT
  5
507
  8
DEFPOINTS
 62
     0
 10
2599.407096765884944
 20
1506.1325982253010807
 30
0.0
  0
POINT
  5
508
  8
DEFPOINTS
 62
     0
 10
2613.3842049285799476
 20
1511.576902350562932
 30
0.0
  0
ENDBLK
  5
4F2
  8
0
  0
BLOCK
  8
0
  2
*U31
 70
     1
 10
0.0
 20
0.0
 30
0.0
  3
*U31
  1

  0
TEXT
  5
6C6
  8
0
 10
2635.1172004565728457
 20
1525.8656942189270467
 30
0.0
 40
25.0
  1
R15
 50
21.2816984109064791
  0
ENDBLK
  5
6C8
  8
0
  0
BLOCK
  8
0
  2
*D32
 70
     1
 10
0.0
 20
0.0
 30
0.0
  3
*D32
  1

  0
LINE
  5
5E6
  8
0
 10
2594.3692864104650653
 20
1648.4888287394339841
 30
0.0
 11
2514.9971450294169699
 21
1599.8154273526249654
 31
0.0
  0
INSERT
  5
5E7
  8
0
  2
*U33
 10
0.0
 20
0.0
 30
0.0
  0
SOLID
  5
5E8
  8
0
 10
2513.6902332232020854
 20
1601.946619866401079
 30
0.0
 11
2516.3040568356341282
 21
1597.6842348388499886
 31
0.0
 12
2502.2099899467648356
 22
1591.9739565153279273
 32
0.0
 13
2502.2099899467648356
 23
1591.9739565153279273
 33
0.0
  0
POINT
  5
5E9
  8
DEFPOINTS
 62
     0
 10
2502.2099899467648356
 20
1591.9739565153279273
 30
0.0
  0
POINT
  5
5EA
  8
DEFPOINTS
 62
     0
 10
2514.9971450294169699
 20
1599.8154273526249654
 30
0.0
  0
ENDBLK
  5
5CA
  8
0
  0
BLOCK
  8
0
  2
*U33
 70
     1
 10
0.0
 20
0.0
 30
0.0
  3
*U33
  1

  0
TEXT
  5
6D8
  8
0
 10
2533.8450199036319646
 20
1617.7388835038009347
 30
0.0
 40
25.0
  1
R15
 50
31.5178870016478889
  0
ENDBLK
  5
6DA
  8
0
  0
BLOCK
  8
0
  2
*D34
 70
     1
 10
0.0
 20
0.0
 30
0.0
  3
*D34
  1

  0
LINE
  5
5F9
  8
0
 10
2509.9971450294187889
 20
2017.8154273526261022
 30
0.0
 11
2407.4200044515077934
 21
2017.8154273526261022
 31
0.0
  0
LINE
  5
5FA
  8
0
 10
2509.9971450294187889
 20
1584.8154273526261022
 30
0.0
 11
2407.4200044515077934
 21
1584.8154273526261022
 31
0.0
  0
LINE
  5
5FB
  8
0
 10
2408.6700044515068839
 20
2002.8154273526261022
 30
0.0
 11
2408.6700044515068839
 21
1599.8154273526261022
 31
0.0
  0
SOLID
  5
5FC
  8
0
 10
2406.1700044515068839
 20
2002.8154273526261022
 30
0.0
 11
2411.1700044515077934
 21
2002.8154273526261022
 31
0.0
 12
2408.6700044515068839
 22
2017.8154273526261022
 32
0.0
 13
2408.6700044515068839
 23
2017.8154273526261022
 33
0.0
  0
SOLID
  5
5FD
  8
0
 10
2406.1700044515068839
 20
1599.8154273526261022
 30
0.0
 11
2411.1700044515077934
 21
1599.8154273526261022
 31
0.0
 12
2408.6700044515068839
 22
1584.8154273526261022
 32
0.0
 13
2408.6700044515068839
 23
1584.8154273526261022
 33
0.0
  0
INSERT
  5
5FE
  8
0
  2
*U35
 10
0.0
 20
0.0
 30
0.0
  0
POINT
  5
5FF
  8
DEFPOINTS
 62
     0
 10
2514.9971450294187889
 20
2017.8154273526261022
 30
0.0
  0
POINT
  5
600
  8
DEFPOINTS
 62
     0
 10
2514.9971450294187889
 20
1584.8154273526261022
 30
0.0
  0
POINT
  5
601
  8
DEFPOINTS
 62
     0
 10
2408.6700044515068839
 20
1584.8154273526261022
 30
0.0
  0
ENDBLK
  5
5EE
  8
0
  0
BLOCK
  8
0
  2
*U35
 70
     1
 10
0.0
 20
0.0
 30
0.0
  3
*U35
  1

  0
TEXT
  5
6DC
  8
0
 10
2403.6700044515077934
 20
1774.6101067523520669
 30
0.0
 40
25.0
  1
17"
 50
90.0
  0
ENDBLK
  5
6DE
  8
0
  0
BLOCK
  8
0
  2
*D36
 70
     1
 10
0.0
 20
0.0
 30
0.0
  3
*D36
  1

  0
LINE
  5
611
  8
0
 10
2499.9971450294178794
 20
2007.8154273526249654
 30
0.0
 11
2499.9971450294178794
 21
2085.0843342739649415
 31
0.0
  0
LINE
  5
612
  8
0
 10
3313.9971450294178794
 20
2007.8154273526249654
 30
0.0
 11
3313.9971450294178794
 21
2085.0843342739649415
 31
0.0
  0
LINE
  5
613
  8
0
 10
2514.9971450294169699
 20
2083.834334273964032
 30
0.0
 11
3298.9971450294178794
 21
2083.834334273964032
 31
0.0
  0
SOLID
  5
614
  8
0
 10
2514.9971450294169699
 20
2086.3343342739649415
 30
0.0
 11
2514.9971450294169699
 21
2081.334334273964032
 31
0.0
 12
2499.9971450294178794
 22
2083.834334273964032
 32
0.0
 13
2499.9971450294178794
 23
2083.834334273964032
 33
0.0
  0
SOLID
  5
615
  8
0
 10
3298.9971450294178794
 20
2086.3343342739649415
 30
0.0
 11
3298.9971450294178794
 21
2081.334334273964032
 31
0.0
 12
3313.9971450294178794
 22
2083.834334273964032
 32
0.0
 13
3313.9971450294178794
 23
2083.834334273964032
 33
0.0
  0
INSERT
  5
616
  8
0
  2
*U37
 10
0.0
 20
0.0
 30
0.0
  0
POINT
  5
617
  8
DEFPOINTS
 62
     0
 10
2499.9971450294178794
 20
2002.8154273526249654
 30
0.0
  0
POINT
  5
618
  8
DEFPOINTS
 62
     0
 10
3313.9971450294178794
 20
2002.8154273526249654
 30
0.0
  0
POINT
  5
619
  8
DEFPOINTS
 62
     0
 10
3313.9971450294178794
 20
2083.834334273964032
 30
0.0
  0
ENDBLK
  5
606
  8
0
  0
BLOCK
  8
0
  2
*U37
 70
     1
 10
0.0
 20
0.0
 30
0.0
  3
*U37
  1

  0
TEXT
  5
6E0
  8
0
 10
2881.4599690403329078
 20
2089.2777176300360225
 30
0.0
 40
25.0
  1
32"
  0
ENDBLK
  5
6E2
  8
0
  0
BLOCK
  8
0
  2
*U38
 70
     1
 10
0.0
 20
0.0
 30
0.0
  3
*U38
  1

  0
TEXT
  5
813
  8
0
 10
2453.334567471176797
 20
2339.9677743920888133
 30
0.0
 40
40.0
  1
208058  TEMPLATE
  0
ENDBLK
  5
815
  8
0
  0
ENDSEC
  0
SECTION
  2
ENTITIES
  0
POLYLINE
  5
5C6
  8
0
 66
     1
 10
0.0
 20
0.0
 30
0.0
 70
     1
  0
VERTEX
  5
7C9
  8
0
 10
2514.9971450294169699
 20
2017.8154273526240559
 30
0.0
  0
VERTEX
  5
7CA
  8
0
 10
3298.9971450294178794
 20
2017.8154273526240559
 30
0.0
 42
-0.4142135623730951
  0
VERTEX
  5
7CB
  8
0
 10
3313.9971450294178794
 20
2002.8154273526249654
 30
0.0
  0
VERTEX
  5
7CC
  8
0
 10
3313.9971450294178794
 20
1599.8154273526249654
 30
0.0
 42
-0.4142135623730951
  0
VERTEX
  5
7CD
  8
0
 10
3298.9971450294178794
 20
1584.8154273526249654
 30
0.0
  0
VERTEX
  5
7CE
  8
0
 10
2514.9971450294169699
 20
1584.8154273526249654
 30
0.0
 42
-0.4142135623730951
  0
VERTEX
  5
7CF
  8
0
 10
2499.9971450294178794
 20
1599.8154273526249654
 30
0.0
  0
VERTEX
  5
7D0
  8
0
 10
2499.9971450294178794
 20
2002.8154273526249654
 30
0.0
 42
-0.4142135623730951
  0
SEQEND
  5
7D1
  8
0
  0
DIMENSION
  5
5C7
  8
0
  2
*D32
 10
2514.9971450294169699
 20
1599.8154273526249654
 30
0.0
 11
2564.564573642781852
 21
1630.2116760443159365
 31
0.0
 70
   132
  1
R15
 15
2502.2099899467648356
 25
1591.9739565153279273
 35
0.0
 40
0.0
1001
ACAD
1000
DSTYLE
1002
{
1070
   288
1070
     1
1002
}
1001
ACAD_DSTYLE_DIMRADIAL_EXTENSION
1070
   387
1070
     1
1070
   388
1040
3.1415926535897918
1070
   390
1040
4.7123889803846879
  0
DIMENSION
  5
5EB
  8
0
  2
*D34
 10
2408.6700044515068839
 20
1584.8154273526261022
 30
0.0
 11
2391.1188448334992245
 21
1801.3154273526249654
 31
0.0
 13
2514.9971450294169699
 23
2017.8154273526240559
 33
0.0
 14
2514.9971450294169699
 24
1584.8154273526249654
 34
0.0
 50
90.0
  0
DIMENSION
  5
603
  8
0
  2
*D36
 10
3313.9971450294178794
 20
2083.834334273964032
 30
0.0
 11
2906.9971450294178794
 21
2101.6071855700079141
 31
0.0
 13
2499.9971450294178794
 23
2002.8154273526249654
 33
0.0
 14
3313.9971450294178794
 24
2002.8154273526249654
 34
0.0
  0
INSERT
  5
7B8
  8
0
  2
*U38
 10
0.0
 20
0.0
 30
0.0
  0
ENDSEC
  0
EOF
